<?xml version="1.0" standalone="no"?>
<!DOCTYPE svg PUBLIC "-//W3C//DTD SVG 1.1//EN" "http://www.w3.org/Graphics/SVG/1.1/DTD/svg11.dtd">
<svg xmlns="http://www.w3.org/2000/svg">
<defs >
<font id="PTSans" horiz-adv-x="503" ><font-face
    font-family="PT Sans"
    units-per-em="1000"
    panose-1="2 11 5 3 2 2 3 9 2 4"
    ascent="1018"
    descent="-276"
    alphabetic="0" />
<glyph unicode=" " glyph-name="space" horiz-adv-x="267" />
<glyph unicode="!" glyph-name="exclam" horiz-adv-x="273" d="M237 700H317L244 353L190 177H144L164 353L237 700ZM87 46Q87 73 103 88T145 104Q171 104 187 89T203 46Q203 20 187 4T145 -12Q119 -12 103 4T87 46Z" />
<glyph unicode="&quot;" glyph-name="quotedbl" horiz-adv-x="303" d="M231 700H305L235 507H190L231 700ZM376 700H450L380 507H335L376 700Z" />
<glyph unicode="#" glyph-name="numbersign" horiz-adv-x="520" d="M316 225H210L171 58H103L142 225H64L78 289H158L189 420H114L128 484H204L242 642H310L272 484H378L416 642H484L446 484H523L507 420H431L400 289H473L457 225H384L345 58H277L316 225ZM226
289H332L363 420H257L226 289Z" />
<glyph unicode="$" glyph-name="dollar" horiz-adv-x="520" d="M198 -9Q150 -2 114 17T61 51L96 112Q112 101 142 84T213 60L273 341Q251 357 230 375T192 414T165 461T154 522Q154 566 168 599T209 656T272 693T351 710L371 800H435L416 711Q459 707 489 696T541
674L507 611Q490 619 463 627T401 640L347 389Q370 372 392 353T432 310T461 256T472 185Q472 144 458 110T417 50T351 8T261 -11Q261 -12 258 -25T252 -56Q248 -75 243 -100H179L198 -9ZM390 178Q390 223 368 253T315 310L261 58Q321 62 355 94T390 178ZM236 534Q236
496 256 470T305 420L352 641Q295 637 266 608T236 534Z" />
<glyph unicode="%" glyph-name="percent" horiz-adv-x="736" d="M60 490Q60 548 77 590T122 659T182 699T247 712Q304 712 333 681T363 593Q363 539 348 498T308 429T248 387T175 372Q124 372 92 403T60 490ZM129 498Q129 466 143 448T187 430Q208 430 227 441T262
472T285 522T294 589Q294 624 279 639T235 654Q214 654 195 642T161 608T138 559T129 498ZM386 119Q386 177 403 219T448 288T508 328T573 341Q630 341 659 310T689 222Q689 168 674 127T634 58T574 16T501 1Q450 1 418 32T386 119ZM455 127Q455 95 469 77T513
59Q534 59 553 70T588 101T611 151T620 218Q620 253 605 268T561 283Q540 283 521 271T487 237T464 188T455 127ZM601 713L651 674L138 -12L88 27L601 713Z" />
<glyph unicode="&amp;" glyph-name="ampersand" horiz-adv-x="772" d="M87 148Q87 195 106 238T157 318T227 384T305 434Q298 452 293 466T285 495T280 525T278 561Q278 588 288 615T319 663T371 698T447 712Q482 712 503 703T537 679T553 648T557 616Q557 559
514 511T395 421Q405 392 418 362T448 301T482 242T518 187Q531 199 545 217T574 256T601 299T625 341L678 312Q669 295 653 272T619 224T583 177T551 139Q583 99 605 78T653 41L595 -15Q572 -2 546 23T495 81Q474 63 450 47T398 17T338 -4T268 -12Q226 -12 193
0T136 33T100 84T87 148ZM460 131Q439 160 420 194T383 262T353 327T330 383Q294 360 264 334T213 281T179 224T167 165Q167 111 200 84T293 57Q317 57 341 63T387 80T427 104T460 131ZM353 563Q353 548 354 536T357 514T363 492T373 466Q430 500 458 531T487 600Q487
620 476 634T436 648Q413 648 398 641T372 622T358 594T353 563Z" />
<glyph unicode="&apos;" glyph-name="quotesingle" horiz-adv-x="202" d="M143 700H217L147 507H102L143 700Z" />
<glyph unicode="(" glyph-name="parenleft" horiz-adv-x="266" d="M145 -218Q91 -139 73 -66T54 75Q54 176 77 269T139 443T229 591T336 712L373 677Q317 613 273 544T196 399T148 245T132 87Q132 21 145 -47T191 -183L145 -218Z" />
<glyph unicode=")" glyph-name="parenright" horiz-adv-x="266" d="M137 708Q160 678 176 641T202 566T216 491T221 419Q221 319 199 226T138 51T49 -99T-57 -220L-95 -185Q-46 -132 -4 -64T72 79T124 235T143 391Q143 489 131 556T87 675L137 708Z" />
<glyph unicode="*" glyph-name="asterisk" horiz-adv-x="333" d="M161 715L186 673L204 617L225 674L249 714L297 688L272 645L225 597L293 609H341V553H296L231 565L277 517L301 478L253 450L228 492L204 553L186 495L161 453L111 481L137 523L180 565L121 553H71V609H121L184
597L139 641L112 687L161 715Z" />
<glyph unicode="+" glyph-name="plus" horiz-adv-x="480" d="M55 374H231V555H303V374H479V302H303V121H231V302H55V374Z" />
<glyph unicode="," glyph-name="comma" horiz-adv-x="195" d="M17 35Q17 61 34 79T83 97Q108 97 121 80T135 41Q135 10 125 -19T95 -74T51 -118T-5 -149L-21 -110Q17 -96 40 -66T68 -7Q64 -9 58 -9Q44 -9 31 3T17 35Z" />
<glyph unicode="-" glyph-name="hyphen" horiz-adv-x="342" d="M79 322H309L292 254H63L79 322Z" />
<glyph unicode="." glyph-name="period" horiz-adv-x="211" d="M35 46Q35 73 51 88T93 104Q119 104 135 89T151 46Q151 20 135 4T93 -12Q67 -12 51 4T35 46Z" />
<glyph unicode="/" glyph-name="slash" horiz-adv-x="336" d="M428 712L485 681L-36 -144L-93 -112L428 712Z" />
<glyph unicode="0" glyph-name="zero" horiz-adv-x="520" d="M57 219Q57 324 79 414T141 571T236 674T357 712Q442 712 488 657T534 482Q534 392 515 304T458 146T365 32T238 -12Q187 -12 153 7T97 59T66 133T57 219ZM135 223Q135 172 145 140T171 90T208 65T250
58Q295 58 333 93T398 188T440 321T456 472Q456 558 432 600T345 642Q305 642 268 611T201 524T153 391T135 223Z" />
<glyph unicode="1" glyph-name="one" horiz-adv-x="520" d="M78 74H211L315 558L337 617L288 570L168 491L140 542L387 712H421L285 74H415L400 0H63L78 74Z" />
<glyph unicode="2" glyph-name="two" horiz-adv-x="520" d="M515 571Q515 519 486 458T413 336T315 216T213 110L158 67V63L220 74H425L411 0H32L38 29Q63 54 102 91T186 174T276 270T357 370T415 468T437 555Q437 574 433 590T420 617T394 635T350 642Q314 642
280 628T208 588L187 648Q235 683 279 697T375 712Q445 712 480 673T515 571Z" />
<glyph unicode="3" glyph-name="three" horiz-adv-x="520" d="M192 58Q239 58 274 73T332 112T367 168T379 233Q379 285 353 313T256 341H184L190 370L372 592L424 636L361 626H176L190 700H530L524 671L323 429L284 400V398L317 405Q345 405 370 396T414 367T445
317T457 245Q457 191 440 145T388 63T301 8T180 -12Q137 -12 103 -5T43 13L79 84Q99 73 127 66T192 58Z" />
<glyph unicode="4" glyph-name="four" horiz-adv-x="520" d="M514 215H401L356 0H283L328 215H34L41 248L456 711H507L416 283H528L514 215ZM390 503L417 585H413L366 517L193 326L138 276L205 283H343L390 503Z" />
<glyph unicode="5" glyph-name="five" horiz-adv-x="520" d="M186 58Q231 58 266 72T327 112T365 172T377 247Q378 304 347 332T243 360L163 355L236 700H532L516 626H291L248 426Q249 426 255 426T269 427Q278 427 288 428Q335 428 367 414T418 376T446 323T455
261Q455 184 430 132T365 47T274 2T171 -12Q131 -12 101 -6T47 11L81 80Q102 71 125 65T186 58Z" />
<glyph unicode="6" glyph-name="six" horiz-adv-x="520" d="M483 244Q483 188 467 142T419 61T343 7T243 -12Q210 -12 178 -1T121 36T79 103T63 204Q63 304 101 393T200 549T338 660T493 712L497 648Q442 639 388 612T289 544T208 453T155 347Q165 360 182 372T220
395T266 410T317 416Q389 416 436 373T483 244ZM405 234Q403 284 378 316T296 348Q273 348 251 342T208 324T171 299T144 268Q142 255 140 240T138 212Q138 179 144 151T165 101T200 68T251 56Q291 56 320 71T367 112T394 169T405 234Z" />
<glyph unicode="7" glyph-name="seven" horiz-adv-x="520" d="M69 0L431 586L483 635L425 626H160L175 700H572L567 673L151 0H69Z" />
<glyph unicode="8" glyph-name="eight" horiz-adv-x="520" d="M61 146Q61 215 106 273T235 367Q219 380 205 393T179 424T160 465T153 521Q153 567 170 602T217 662T286 699T367 712Q400 712 429 703T479 675T512 629T524 565Q524 535 513 506T481 450T433 402T372
361Q390 346 406 330T435 294T454 251T462 198Q462 156 449 118T407 51T334 5T226 -12Q185 -12 155 0T103 34T72 84T61 146ZM384 183Q384 211 377 232T357 271T326 304T285 333Q219 302 179 257T139 155Q139 137 144 119T160 88T192 66T243 58Q271 58 296 65T342
89T373 128T384 183ZM231 525Q231 477 255 448T321 392Q346 408 369 427T408 467T435 509T446 551Q446 598 423 620T358 642Q332 642 309 635T269 612T242 575T231 525Z" />
<glyph unicode="9" glyph-name="nine" horiz-adv-x="520" d="M106 467Q106 525 124 570T174 647T250 695T345 712Q382 712 415 699T473 658T512 592T526 500Q526 385 486 294T382 137T243 33T97 -12L93 52Q156 66 209 93T306 157T380 241T429 341Q397 313 359
299T263 284Q236 284 209 294T158 326T121 383T106 467ZM184 476Q184 440 195 416T221 378T255 358T292 352Q338 352 379 370T443 414Q444 420 445 431T448 453T450 474T451 490Q451 560 421 602T332 644Q303 644 277 634T230 603T197 551T184 476Z" />
<glyph unicode=":" glyph-name="colon" horiz-adv-x="267" d="M173 449Q173 476 189 491T231 507Q257 507 273 492T289 449Q289 423 273 407T231 391Q205 391 189 407T173 449ZM89 46Q89 73 105 88T147 104Q173 104 189 89T205 46Q205 20 189 4T147 -12Q121 -12
105 4T89 46Z" />
<glyph unicode=";" glyph-name="semicolon" horiz-adv-x="273" d="M92 35Q92 61 109 79T158 97Q183 97 196 80T210 41Q210 10 200 -19T170 -74T126 -118T70 -149L54 -110Q92 -96 115 -66T143 -7Q139 -9 133 -9Q119 -9 106 3T92 35ZM179 449Q179 476 195 491T237
507Q263 507 279 492T295 449Q295 423 279 407T237 391Q211 391 195 407T179 449Z" />
<glyph unicode="&lt;" glyph-name="less" horiz-adv-x="480" d="M54 305V334L433 565L471 503L234 358L143 320L233 288L476 144L438 84L54 305Z" />
<glyph unicode="=" glyph-name="equal" horiz-adv-x="480" d="M55 457H479V385H55V457ZM55 291H479V219H55V291Z" />
<glyph unicode="&gt;" glyph-name="greater" horiz-adv-x="480" d="M478 344V315L99 84L61 145L298 290L389 328L299 360L56 504L94 565L478 344Z" />
<glyph unicode="?" glyph-name="question" horiz-adv-x="414" d="M123 177Q128 227 148 264T194 332T251 389T305 442T346 499T363 569Q363 607 343 627T271 648Q236 648 202 635T138 604L119 662Q139 674 157 683T197 698T242 708T299 712Q373 712 408 678T443
590Q443 536 426 497T383 426T326 369T266 314T215 254T186 177H123ZM80 46Q80 73 96 88T138 104Q164 104 180 89T196 46Q196 20 180 4T138 -12Q112 -12 96 4T80 46Z" />
<glyph unicode="@" glyph-name="at" horiz-adv-x="1064" d="M736 491H770L719 204Q714 178 712 158T709 121Q709 96 717 84T748 72Q782 72 815 90T874 141T917 221T934 326Q934 403 908 462T835 561T723 623T580 644Q498 644 427 614T303 531T220 404T189 243Q189
154 216 84T295 -34T417 -107T575 -132Q604 -132 641 -125T708 -104L728 -168Q684 -187 646 -193T563 -200Q470 -200 389 -172T247 -89T151 47T116 236Q116 345 153 433T255 583T404 678T584 712Q674 712 751 686T885 610T974 489T1006 326Q1006 262 984 204T925
101T837 31T731 4Q689 4 665 22T640 89Q640 98 641 108T644 131H640Q625 108 606 86T564 45T514 16T458 4Q434 4 413 14T375 45T350 92T340 155Q340 219 361 281T417 391T500 468T601 498Q637 498 659 487T703 460L736 491ZM680 393Q663 413 646 421T602 430Q563
430 529 406T471 345T432 260T417 168Q417 129 433 101T491 72Q511 72 532 86T575 122T615 173T650 230L680 393Z" />
<glyph unicode="A" glyph-name="A" horiz-adv-x="557" d="M404 194H160L52 0H-33L371 711H408L509 0H432L404 194ZM199 266H396L367 479L365 585H364L319 477L199 266Z" />
<glyph unicode="B" glyph-name="B" horiz-adv-x="556" d="M561 551Q561 512 549 480T515 424T464 386T400 366V362Q422 357 442 346T477 317T501 278T510 228Q510 158 483 113T413 40T318 3T214 -8Q198 -8 176 -8T118 -6Q58 0 40 5L186 694Q224 700 271 704T374
708Q411 708 445 699T504 670T545 621T561 551ZM236 64Q271 64 305 72T366 99T409 146T426 217Q426 248 411 268T372 301T318 317T256 322H186L133 71Q139 69 151 68T178 66T208 65T236 64ZM253 390Q270 390 293 390T332 393Q355 398 381 407T428 432T463 474T477
538Q477 566 469 584T444 614T404 631T353 636Q321 636 293 635T251 630L200 390H253Z" />
<glyph unicode="C" glyph-name="C" horiz-adv-x="544" d="M480 29Q446 6 408 -3T320 -12Q261 -12 215 9T137 69T88 160T71 274Q71 387 104 469T191 606T312 686T449 712Q506 712 542 704T601 685L565 612Q545 623 513 630T438 638Q382 638 331 614T240 543T178
431T155 283Q155 235 167 195T203 125T261 79T340 62Q387 62 418 72T474 97L480 29Z" />
<glyph unicode="D" glyph-name="D" horiz-adv-x="622" d="M189 700Q227 705 275 706T362 708Q421 708 469 693T550 645T602 564T620 449Q620 405 612 354T586 252T536 154T459 71T351 13T208 -9Q193 -9 169 -9T120 -7Q50 -3 40 -1L189 700ZM356 634Q344 634 329
634T300 633T273 631T253 629L135 69Q139 68 151 68T176 67T202 66T220 65Q307 65 367 101T464 192T519 313T536 438Q536 483 526 519T495 580T439 620T356 634Z" />
<glyph unicode="E" glyph-name="E" horiz-adv-x="510" d="M189 700H550L535 626H252L203 397H462L447 323H188L135 74H423L407 0H119H40L189 700Z" />
<glyph unicode="F" glyph-name="F" horiz-adv-x="492" d="M189 700H550L535 626H252L201 387H465L450 313H186L120 0H40L189 700Z" />
<glyph unicode="G" glyph-name="G" horiz-adv-x="583" d="M375 349H491H559L494 41Q423 -12 318 -12Q268 -12 224 6T145 59T91 148T71 272Q71 395 107 479T199 614T324 689T456 712Q513 712 550 705T611 686L576 613Q556 624 523 631T447 638Q389 638 337 616T244
548T179 437T155 282Q155 237 166 197T199 127T255 80T335 62Q367 62 390 68T436 87L477 282L365 302L375 349Z" />
<glyph unicode="H" glyph-name="H" horiz-adv-x="639" d="M505 321H187L120 0H40L188 700H268L204 395H521L585 700H665L517 0H437L505 321Z" />
<glyph unicode="I" glyph-name="I" horiz-adv-x="277" d="M210 700H290L142 0H62L210 700Z" />
<glyph unicode="J" glyph-name="J" horiz-adv-x="278" d="M222 700H302L186 154Q177 114 165 84T133 32T85 1T16 -10Q8 -10 -2 -9T-24 -6T-45 -1T-61 6L-31 77Q-12 64 23 64Q44 64 58 71T82 93T98 128T110 174L222 700Z" />
<glyph unicode="K" glyph-name="K" horiz-adv-x="576" d="M239 324H188L120 0H40L188 700H268L198 374L238 388L525 700H624L338 396L292 365L331 325L506 0H415L239 324Z" />
<glyph unicode="L" glyph-name="L" horiz-adv-x="492" d="M434 0H118H40L188 700H268L135 74H449L434 0Z" />
<glyph unicode="M" glyph-name="M" horiz-adv-x="754" d="M651 470L682 575H678L622 479L382 163H358L243 479L228 575H224L216 471L116 0H40L189 700H244L374 342L389 264H390L436 344L709 700H780L631 0H551L651 470Z" />
<glyph unicode="N" glyph-name="N" horiz-adv-x="642" d="M261 458L227 561H224L212 458L115 0H40L191 711H231L449 243L482 145H486L495 243L593 700H668L517 -11H480L261 458Z" />
<glyph unicode="O" glyph-name="O" horiz-adv-x="651" d="M71 256Q71 348 96 431T167 576T279 675T425 712Q473 712 514 698T584 652T630 570T647 448Q647 354 622 271T552 124T445 25T307 -12Q189 -12 130 56T71 256ZM155 257Q155 163 194 112T309 60Q365 60
411 91T492 175T544 298T563 446Q563 504 550 542T516 601T467 631T411 640Q354 640 307 609T227 524T174 402T155 257Z" />
<glyph unicode="P" glyph-name="P" horiz-adv-x="532" d="M187 693Q225 702 267 705T350 708Q396 708 435 698T504 666T549 610T566 527Q566 451 539 400T467 319T366 275T253 262Q248 262 238 262T215 262T192 264T176 266L120 0H40L187 693ZM333 636Q310 636
289 635T253 630L192 339Q196 337 205 337T225 335T246 334T261 334Q304 334 344 343T414 374T463 431T482 519Q482 555 470 578T438 613T390 631T333 636Z" />
<glyph unicode="Q" glyph-name="Q" horiz-adv-x="651" d="M633 -171Q609 -178 587 -180T542 -183Q494 -183 451 -173T369 -150T293 -128T221 -117Q210 -117 199 -118T176 -122L191 -49Q218 -43 244 -43Q284 -43 321 -53T396 -76T476 -98T564 -109Q605 -109 649
-99L633 -171ZM71 256Q71 348 96 431T167 576T279 675T425 712Q473 712 514 698T584 652T630 570T647 448Q647 354 622 271T552 124T445 25T307 -12Q189 -12 130 56T71 256ZM155 257Q155 163 194 112T309 60Q365 60 411 91T492 175T544 298T563 446Q563 504 550
542T516 601T467 631T411 640Q354 640 307 609T227 524T174 402T155 257Z" />
<glyph unicode="R" glyph-name="R" horiz-adv-x="568" d="M187 693Q229 701 268 704T346 708Q384 708 420 699T483 669T527 615T544 535Q544 447 493 389T343 313L379 277L487 0H400L280 302L186 317L120 0H40L187 693ZM341 636Q317 636 293 635T253 630L198 372H267Q303
372 337 379T399 404T443 453T460 531Q460 549 453 567T432 601T395 626T341 636Z" />
<glyph unicode="S" glyph-name="S" horiz-adv-x="505" d="M388 180Q388 216 370 241T323 286T263 326T202 370T156 429T137 513Q137 566 156 604T209 666T288 701T385 712Q443 712 489 703T561 680L521 609Q501 620 462 630T370 640Q304 640 263 610T221 523Q221
486 239 461T286 415T346 375T407 332T453 273T472 190Q472 93 402 41T201 -12Q134 -12 88 -1T17 25L58 98Q81 85 120 73T214 60Q245 60 276 65T332 85T372 122T388 180Z" />
<glyph unicode="T" glyph-name="T" horiz-adv-x="528" d="M602 626H395L263 0H183L315 626H110L125 700H617L602 626Z" />
<glyph unicode="U" glyph-name="U" horiz-adv-x="618" d="M573 700H649L551 233Q537 169 516 123T464 48T388 5T286 -9Q231 -9 193 3T132 38T98 93T87 165Q87 206 98 258L191 700H271L178 257Q167 213 167 177Q167 114 200 90T298 65Q337 65 366 76T417 110T453
169T479 256L573 700Z" />
<glyph unicode="V" glyph-name="V" horiz-adv-x="541" d="M253 221V114H255L300 223L565 700H651L249 -11H212L104 700H186L253 221Z" />
<glyph unicode="W" glyph-name="W" horiz-adv-x="788" d="M214 233L205 117H206L245 235L480 700H523L560 233L551 117H552L592 235L805 700H887L551 -11H507L469 458L475 564H471L431 457L197 -11H153L114 700H196L214 233Z" />
<glyph unicode="X" glyph-name="X" horiz-adv-x="588" d="M289 358L159 700H246L332 463L344 406L378 463L569 700H666L387 361L529 0H442L346 251L332 311L294 251L90 0H-7L289 358Z" />
<glyph unicode="Y" glyph-name="Y" horiz-adv-x="531" d="M241 278L108 700H195L284 394L287 333H288L318 396L535 700H625L321 279L262 0H182L241 278Z" />
<glyph unicode="Z" glyph-name="Z" horiz-adv-x="520" d="M14 75L449 586L498 626H132L147 700H594L579 625L141 111L94 74H461L446 0H-1L14 75Z" />
<glyph unicode="[" glyph-name="bracketleft" horiz-adv-x="291" d="M213 700H289H386L371 630H274L106 -160H204L189 -230H91H16L213 700Z" />
<glyph unicode="\" glyph-name="backslash" horiz-adv-x="380" d="M449 -111L383 -140L41 684L110 712L449 -111Z" />
<glyph unicode="]" glyph-name="bracketright" horiz-adv-x="291" d="M109 -230H34H-63L-48 -160H48L215 630H118L133 700H232H306L109 -230Z" />
<glyph unicode="^" glyph-name="asciicircum" horiz-adv-x="500" d="M288 711H317L486 435H403L324 570L301 639L270 569L177 435H102L288 711Z" />
<glyph unicode="_" glyph-name="underscore" horiz-adv-x="408" d="M-44 -137H364V-205H-44V-137Z" />
<glyph unicode="`" glyph-name="grave" horiz-adv-x="238" d="M297 571H254L173 699L177 720H268L297 571Z" />
<glyph unicode="a" glyph-name="a" horiz-adv-x="487" d="M414 197Q406 160 403 122T400 51Q400 36 400 23T402 -2H346L332 85H328Q316 68 299 51T260 19T215 -3T164 -12Q45 -12 45 143Q45 207 61 273T112 392T201 479T333 513Q361 513 401 507T477 489L414 197ZM187
52Q211 52 233 63T274 92T309 128T333 165L389 435Q359 449 313 449Q267 449 232 422T173 352T137 253T125 143Q125 105 140 79T187 52Z" />
<glyph unicode="b" glyph-name="b" horiz-adv-x="521" d="M185 700H260L199 414H203Q217 432 235 449T275 481T322 503T376 512Q435 512 462 471T489 366Q489 276 464 207T398 89T305 16T197 -9Q143 -9 103 3T43 31L185 700ZM352 448Q327 448 301 436T252 403T209
359T177 311L127 76Q157 55 212 55Q244 55 279 74T343 131T390 223T409 348Q409 399 394 423T352 448Z" />
<glyph unicode="c" glyph-name="c" horiz-adv-x="420" d="M365 43Q350 30 331 20T291 3T250 -8T212 -12Q163 -12 132 3T82 43T57 95T50 148Q50 233 73 300T134 415T223 487T326 512Q364 512 388 505T433 489L405 427Q388 437 363 442T309 448Q275 448 243 425T185
365T145 279T130 179Q130 114 157 83T230 52Q260 52 293 65T346 93L365 43Z" />
<glyph unicode="d" glyph-name="d" horiz-adv-x="509" d="M419 172Q411 133 407 99T403 36Q403 25 403 16T405 -2H355L341 85H337Q325 68 307 51T267 19T221 -3T170 -12Q115 -12 83 28T50 157Q50 216 67 278T117 392T199 476T314 509Q332 509 345 508T369 505T391
500T412 492L456 700H531L419 172ZM198 52Q219 52 241 63T282 92T317 128T342 165L398 425Q381 436 360 440T303 445Q263 445 231 421T177 355T142 261T130 152Q130 111 146 82T198 52Z" />
<glyph unicode="e" glyph-name="e" horiz-adv-x="463" d="M389 49Q354 19 307 4T211 -12Q131 -12 91 34T50 162Q50 244 73 309T133 419T218 488T316 512Q352 512 378 502T422 476T447 438T455 392Q455 321 386 281T185 240Q173 240 160 240T133 242Q129 223 127
206T125 176Q125 121 150 87T228 52Q272 52 308 66T365 97L389 49ZM304 448Q249 448 209 411T147 298Q185 298 226 300T300 310T356 337T378 389Q378 399 375 409T363 428T341 442T304 448Z" />
<glyph unicode="f" glyph-name="f" horiz-adv-x="278" d="M219 436L139 -34Q133 -71 123 -102T95 -157T52 -194T-11 -208Q-41 -208 -66 -204T-114 -188L-92 -132Q-72 -139 -56 -141T-15 -144Q23 -144 42 -108T74 8L144 436H67L80 500H153L166 567Q173 604 183
631T209 676T250 703T310 712Q343 712 374 706T430 688L408 629Q359 648 315 648Q278 648 261 623T235 541L228 500H329L317 436H219Z" />
<glyph unicode="g" glyph-name="g" horiz-adv-x="505" d="M385 -23Q364 -121 313 -166T176 -212Q111 -212 69 -196T5 -167L38 -111Q46 -115 57 -121T85 -134T125 -144T181 -148Q231 -148 265 -112T316 1L334 85H330Q316 66 300 49T263 19T220 -3T168 -11Q114 -11
81 28T48 139Q48 206 66 272T121 390T211 476T335 509Q389 509 426 500T491 478L385 -23ZM196 53Q221 53 245 66T290 99T327 144T355 189L406 430Q390 439 367 442T320 445Q279 445 244 421T184 357T143 263T128 152Q128 106 146 80T196 53Z" />
<glyph unicode="h" glyph-name="h" horiz-adv-x="529" d="M341 0L401 285Q407 315 411 338T415 380Q415 417 400 432T353 448Q327 448 300 435T248 400T204 353T174 303L111 0H36L184 700H259L197 414H201Q214 430 232 447T275 478T327 502T388 512Q437 512 465
489T493 403Q493 361 480 302L416 0H341Z" />
<glyph unicode="i" glyph-name="i" horiz-adv-x="259" d="M160 500H235L129 0H54L160 500ZM176 653Q176 676 191 692T230 708Q253 708 269 692T285 653Q285 630 269 615T230 599Q207 599 192 614T176 653Z" />
<glyph unicode="j" glyph-name="j" horiz-adv-x="249" d="M148 500H223L111 -27Q91 -120 49 -164T-65 -208Q-73 -208 -80 -208T-96 -206L-81 -141Q-51 -141 -32 -133T1 -106T24 -61T42 3L148 500ZM164 653Q164 676 179 692T218 708Q241 708 257 692T273 653Q273
630 257 615T218 599Q195 599 180 614T164 653Z" />
<glyph unicode="k" glyph-name="k" horiz-adv-x="449" d="M212 225H158L111 0H36L184 700H259L168 274L211 285L391 500H483L305 297L258 264L296 225L408 0H325L212 225Z" />
<glyph unicode="l" glyph-name="l" horiz-adv-x="270" d="M133 119Q130 102 130 91Q130 72 136 64T154 55Q174 55 187 57T220 67V10Q211 5 199 2T175 -4T150 -7T127 -9Q92 -9 71 7T50 66Q50 86 56 115L180 700H255L133 119Z" />
<glyph unicode="m" glyph-name="m" horiz-adv-x="763" d="M305 0L365 283Q373 318 377 345T381 392Q381 419 371 433T337 448Q312 448 288 435T243 403T205 361T177 321L111 0H36L142 500H195L189 414H193Q209 430 227 447T268 479T317 502T376 512Q421 512 436
484T452 406Q467 425 487 444T530 478T580 502T632 512Q678 512 702 491T727 411Q727 369 712 300L649 0H574L637 301Q643 330 646 353T650 393Q650 420 639 434T602 448Q581 448 558 435T512 401T473 358T445 315L380 0H305Z" />
<glyph unicode="n" glyph-name="n" horiz-adv-x="522" d="M331 0L398 316Q402 334 405 351T408 383Q408 412 395 430T344 448Q318 448 293 436T246 406T207 365T177 320L111 0H36L142 500H194L190 414H194Q207 430 225 447T265 479T316 502T378 512Q428 512 457
488T486 404Q486 374 477 332L406 0H331Z" />
<glyph unicode="o" glyph-name="o" horiz-adv-x="498" d="M50 156Q50 235 70 300T127 413T210 486T312 512Q354 512 383 499T431 462T458 408T466 344Q466 269 447 204T393 91T312 16T212 -12Q167 -12 137 2T87 41T59 95T50 156ZM130 174Q130 115 152 84T222 52Q255
52 284 75T336 139T372 230T386 338Q386 389 368 418T297 448Q264 448 234 426T181 365T144 278T130 174Z" />
<glyph unicode="p" glyph-name="p" horiz-adv-x="508" d="M144 500H196L191 414H195Q209 432 226 449T265 481T311 503T365 512Q389 512 410 505T447 480T472 433T482 362Q482 274 458 205T395 87T308 14T211 -12Q176 -12 150 -6T114 8L70 -200H-5L144 500ZM337
448Q310 448 286 434T241 400T204 356T178 312L129 75Q146 62 164 57T203 52Q242 52 277 73T341 135T385 231T402 356Q402 396 386 422T337 448Z" />
<glyph unicode="q" glyph-name="q" d="M340 -200H265L326 84H322Q310 68 295 51T260 20T216 -3T165 -12Q133 -12 110 -1T73 31T53 80T46 141Q46 208 68 274T129 392T222 476T341 509Q362 509 383 506T424 499T459 489T484 477L340 -200ZM186 52Q211 52 236 67T284
104T323 152T350 199L400 430Q384 439 362 442T322 445Q283 445 248 420T185 354T142 259T126 148Q126 100 141 76T186 52Z" />
<glyph unicode="r" glyph-name="r" horiz-adv-x="327" d="M362 434Q353 436 344 437T326 438Q275 438 238 406T180 328L111 0H36L142 500H194V414H198Q210 433 224 449T255 479T292 499T336 507Q358 507 382 500L362 434Z" />
<glyph unicode="s" glyph-name="s" horiz-adv-x="398" d="M259 141Q259 167 246 185T213 217T170 246T127 277T94 318T81 377Q81 405 94 429T131 472T187 501T258 512Q311 512 340 505T392 485L367 425Q327 448 258 448Q216 448 189 431T161 377Q161 356 174 341T207
311T250 283T293 250T326 206T339 147Q339 69 287 29T146 -12Q101 -12 64 -3T3 20L31 83Q51 70 83 61T151 52Q200 52 229 73T259 141Z" />
<glyph unicode="t" glyph-name="t" horiz-adv-x="313" d="M71 500H145L166 599L246 622L220 500H351L336 436H206L143 134Q141 122 140 112T138 94Q138 70 149 61T182 52Q206 52 226 58T266 76V15Q245 3 212 -4T149 -12Q58 -12 58 71Q58 88 63 113L131 436H56L71 500Z" />
<glyph unicode="u" glyph-name="u" horiz-adv-x="511" d="M213 500L143 167Q137 140 137 117Q137 89 148 71T188 52Q212 52 236 64T283 95T324 137T355 182L422 500H497L434 203Q430 186 426 162T419 110T413 58T411 13V0H352V95H348Q333 75 314 56T271 22T220
-2T163 -12Q141 -12 123 -7T90 10T68 43T60 96Q60 131 70 175L138 500H213Z" />
<glyph unicode="v" glyph-name="v" horiz-adv-x="447" d="M192 207L201 112H203L246 209L415 500H501L189 -11H157L60 500H140L192 207Z" />
<glyph unicode="w" glyph-name="w" horiz-adv-x="685" d="M427 500L474 208L478 112H479L518 210L665 500H741L472 -11H434L381 319L380 401H378L341 318L151 -11H115L57 500H133L164 209L162 112H166L206 211L371 500H427Z" />
<glyph unicode="x" glyph-name="x" horiz-adv-x="484" d="M203 256L96 500H181L240 362L258 305L299 362L420 500H511L299 260L418 0H333L265 152L245 212L203 152L69 0H-22L203 256Z" />
<glyph unicode="y" glyph-name="y" horiz-adv-x="439" d="M194 176L199 80H204L242 177L408 500H488L252 54Q226 5 201 -41T148 -124T92 -183T32 -205Q15 -205 3 -203T-20 -196L4 -127Q15 -131 28 -131Q57 -131 86 -101T151 0L65 500H145L194 176Z" />
<glyph unicode="z" glyph-name="z" horiz-adv-x="429" d="M11 69L292 388L347 431H89L104 500H441L426 431L142 109L88 69H349L335 0H-2L11 69Z" />
<glyph unicode="{" glyph-name="braceleft" horiz-adv-x="331" d="M231 -230H150Q115 -230 96 -211T78 -155Q78 -141 82 -126L132 112Q136 130 136 144Q138 176 122 188T75 201L90 269Q164 269 183 354L235 596Q245 643 273 672T347 701H428L413 631H365Q339 631
325 618T303 572L254 335Q245 291 220 268T168 240L167 234Q187 231 201 211T215 159Q215 154 214 147T208 116T192 41T161 -101Q160 -107 159 -112T158 -122Q157 -160 200 -160H247L231 -230Z" />
<glyph unicode="|" glyph-name="bar" horiz-adv-x="238" d="M115 700H184V-130H115V700Z" />
<glyph unicode="}" glyph-name="braceright" horiz-adv-x="331" d="M232 359Q228 342 228 329Q227 296 243 283T290 270L274 202Q238 202 214 181T180 117Q180 116 178 105T172 77T164 38T155 -6Q144 -59 130 -125Q120 -172 91 -201T17 -230H-63L-47 -160H0Q25
-160 39 -147T60 -101L110 136Q120 180 144 203T197 231L199 237Q177 240 163 260T149 312Q149 317 150 323T152 336L203 572Q205 578 205 583T206 593Q207 631 165 631H119L133 701H214Q249 701 268 682T286 626Q286 612 282 597L232 359Z" />
<glyph unicode="~" glyph-name="asciitilde" horiz-adv-x="480" d="M46 361Q89 394 124 407T188 420Q216 420 240 412T286 393T329 374T373 365Q392 365 412 373T455 401L489 340Q451 314 421 304T365 293Q338 293 316 301T273 320T232 339T187 348Q164 348 138
338T80 301L46 361Z" />
<glyph unicode="&#xa0;" glyph-name="uni00A0" horiz-adv-x="267" />
<glyph unicode="&#xa1;" glyph-name="exclamdown" horiz-adv-x="290" d="M96 -200H18L92 147L145 323H192L170 147L96 -200ZM131 453Q131 480 147 495T189 511Q215 511 231 496T247 453Q247 427 231 411T189 395Q163 395 147 411T131 453Z" />
<glyph unicode="&#xa2;" glyph-name="cent" horiz-adv-x="520" d="M419 43Q394 22 360 9T294 -9L275 -100H209L228 -10Q190 -4 165 13T126 52T107 100T101 148Q101 225 120 287T171 396T247 471T338 508L358 600H425L405 511Q431 508 450 502T487 489L459 427Q446
435 427 440T385 447L302 54Q329 58 356 70T400 93L419 43ZM181 179Q181 124 199 94T251 55L333 444Q303 436 276 412T227 351T194 271T181 179Z" />
<glyph unicode="&#xa3;" glyph-name="sterling" horiz-adv-x="520" d="M118 397H183Q179 415 177 435T175 482Q175 539 195 582T248 654T327 697T423 712Q463 712 498 704T557 682L530 618Q510 629 478 636T406 643Q375 643 348 633T300 602T267 552T255 484Q255
453 257 433T264 397H419L404 333H279Q281 321 282 306T283 271Q283 238 277 210T261 160T239 121T216 94L171 60L170 55L232 69H476L461 0H37L52 71Q82 71 109 86T158 126T191 187T204 264Q204 284 202 300T197 333H103L118 397Z" />
<glyph unicode="&#xa4;" glyph-name="currency" horiz-adv-x="520" d="M111 596L189 519L210 484Q252 517 313 517Q372 517 416 484L438 519L516 596L564 547L488 469L453 447Q485 404 485 345Q485 285 453 242L488 221L564 143L516 95L438 172L417 205Q374 174
313 174Q251 174 210 205L189 172L111 95L62 143L139 221L173 243Q142 285 142 345Q142 374 150 400T173 448L139 469L62 547L111 596ZM211 345Q211 300 239 270T313 240Q358 240 387 270T416 345Q416 390 387 420T313 451Q268 451 240 421T211 345Z" />
<glyph unicode="&#xa5;" glyph-name="yen" horiz-adv-x="520" d="M129 328H218L103 700H190L282 394L285 333H286L316 396L529 700H619L349 328H439L426 268H311L298 205H413L400 145H285L255 0H175L205 145H90L102 205H218L231 268H116L129 328Z" />
<glyph unicode="&#xa6;" glyph-name="brokenbar" horiz-adv-x="238" d="M115 206H184V-130H115V206ZM184 364H115V700H184V364Z" />
<glyph unicode="&#xa7;" glyph-name="section" horiz-adv-x="473" d="M88 337Q88 381 109 412T165 466L211 484Q188 503 179 524T169 570Q169 600 183 626T221 671T277 701T348 712Q400 712 431 703T486 680L457 619Q437 630 408 637T343 644Q300 644 274 623T247
567Q247 546 263 533T301 510T349 490T398 465T435 426T450 366Q450 323 427 289T372 235L318 217Q341 201 353 180T365 124Q365 90 351 65T312 22T256 -3T188 -12Q136 -12 104 -1T48 24L80 85Q100 74 128 65T193 56Q233 56 260 71T287 124Q287 146 273 161T237
187T189 211T140 239T103 278T88 337ZM370 355Q370 377 361 391T336 415T299 434T254 452Q239 446 224 437T196 415T176 386T168 348Q168 327 177 312T201 286T236 267T280 249Q295 255 310 264T339 287T361 317T370 355Z" />
<glyph unicode="&#xa8;" glyph-name="dieresis" horiz-adv-x="245" d="M88 653Q88 675 100 689T134 704Q155 704 168 690T181 653Q181 633 168 619T134 604Q113 604 101 618T88 653ZM271 654Q271 675 283 689T317 704Q339 704 351 690T364 654Q364 633 352 619T317
604Q296 604 284 618T271 654Z" />
<glyph unicode="&#xa9;" glyph-name="copyright" horiz-adv-x="806" d="M77 290Q77 373 105 438T181 549T293 618T429 642Q501 642 565 618T677 549T753 439T781 290Q781 207 753 142T677 31T565 -38T429 -62Q349 -62 284 -38T173 31T102 141T77 290ZM147 290Q147
221 169 168T229 78T318 23T429 4Q488 4 539 23T629 78T689 167T711 290Q711 359 689 412T629 502T540 557T429 576Q370 576 319 557T229 502T169 413T147 290ZM545 127Q522 114 494 107T427 100Q346 100 304 151T261 290Q261 381 306 430T427 480Q445 480 459
478T486 473T511 464T538 453L512 392Q490 403 470 407T436 411Q394 411 368 385T341 290Q341 232 367 201T444 168Q491 168 524 186L545 127Z" />
<glyph unicode="&#xaa;" glyph-name="ordfeminine" horiz-adv-x="381" d="M124 677Q150 690 185 699T269 708Q316 708 340 687T365 634Q365 609 358 577T341 509T324 441T316 380H266L263 426H260Q243 409 217 393T150 376Q105 376 83 401T60 462Q60 493 74 515T113
551T168 572T235 579Q249 579 263 578T291 575Q297 594 297 609Q297 652 240 652Q202 652 176 645T129 628L124 677ZM171 432Q212 432 235 450T271 487L279 529Q269 530 260 530T239 530Q218 530 199 528T164 519T139 500T129 469Q129 453 139 443T171 432Z" />
<glyph unicode="&#xab;" glyph-name="guillemotleft" horiz-adv-x="454" d="M212 259L410 487L454 441L331 297L275 260L309 223L376 82L322 40L212 259ZM38 259L238 489L283 442L159 297L102 260L137 223L204 81L150 38L38 259Z" />
<glyph unicode="&#xac;" glyph-name="logicalnot" horiz-adv-x="505" d="M67 392H491V200H421V320H67V392Z" />
<glyph unicode="&#xad;" glyph-name="uni00AD" horiz-adv-x="342" d="M79 322H309L292 254H63L79 322Z" />
<glyph unicode="&#xae;" glyph-name="registered" horiz-adv-x="700" d="M137 451Q137 515 158 564T215 647T300 698T402 716Q457 716 505 699T590 648T646 565T667 451Q667 387 646 338T589 255T504 204T402 186Q346 186 298 203T214 254T158 337T137 451ZM200
451Q200 399 216 361T259 297T324 258T402 245Q445 245 482 257T546 295T588 359T604 451Q604 503 588 541T545 605T481 644T402 657Q358 657 321 644T257 606T215 542T200 451ZM299 581Q315 586 344 588T399 591Q441 591 471 574T501 513Q501 481 481 464T430
445L458 431L532 322H471L399 426L351 441V322H299V581ZM388 546Q377 546 367 546T351 542V471H385Q414 471 430 480T446 511Q446 546 388 546Z" />
<glyph unicode="&#xaf;" glyph-name="overscore" horiz-adv-x="313" d="M134 643H415L402 581H120L134 643Z" />
<glyph unicode="&#xb0;" glyph-name="degree" horiz-adv-x="425" d="M141 571Q141 602 152 628T182 672T227 701T282 712Q311 712 337 703T382 675T412 630T423 571Q423 538 412 512T382 468T337 440T282 430Q253 430 227 439T182 467T152 512T141 571ZM205 571Q205
533 228 512T282 490Q313 490 336 511T359 571Q359 609 336 630T282 652Q251 652 228 631T205 571Z" />
<glyph unicode="&#xb1;" glyph-name="plusminus" horiz-adv-x="480" d="M55 493H231V674H303V493H479V421H303V301H231V421H55V493ZM55 250H479V178H55V250Z" />
<glyph unicode="&#xb2;" glyph-name="twosuperior" horiz-adv-x="377" d="M435 713Q435 681 421 649T382 584T325 521T259 462L209 431V428L266 444H397L383 380H108L115 413Q133 426 158 445T212 489T267 540T316 594T351 648T365 697Q365 743 310 743Q284 743
258 734T212 712L203 769Q231 787 266 797T335 807Q353 807 371 803T403 787T426 758T435 713Z" />
<glyph unicode="&#xb3;" glyph-name="threesuperior" horiz-adv-x="377" d="M242 433Q298 433 324 460T351 526Q351 553 335 566T271 580H219L223 603L339 720L377 746L329 740H208L221 800H464L457 767L333 643L307 625L306 623L328 626Q366 626 392 602T419
535Q419 503 409 474T377 422T320 386T232 373Q198 373 175 379T134 392L160 452Q174 444 195 439T242 433Z" />
<glyph unicode="&#xb4;" glyph-name="acute" horiz-adv-x="238" d="M228 720H312L307 699L184 571H140L228 720Z" />
<glyph unicode="&#xb5;" glyph-name="mu" horiz-adv-x="525" d="M209 500Q185 383 171 316T150 213T142 164T140 143Q140 57 220 57Q273 57 316 90T385 176L454 500H529L457 163Q449 122 443 81T437 0H386L374 74H370Q343 39 299 14T197 -12Q152 -12 131 8T101
58H96L89 -67L61 -200H-14L134 500H209Z" />
<glyph unicode="&#xb6;" glyph-name="paragraph" horiz-adv-x="495" d="M378 700H447V-130H378V700ZM222 310Q190 310 163 326T117 370T86 433T75 506Q75 543 86 578T120 640T174 683T246 700H291V-130H222V310Z" />
<glyph unicode="&#xb7;" glyph-name="middot" horiz-adv-x="267" d="M98 296Q98 323 114 338T156 354Q182 354 198 339T214 296Q214 270 198 254T156 238Q130 238 114 254T98 296Z" />
<glyph unicode="&#xb8;" glyph-name="cedilla" horiz-adv-x="363" d="M167 -43Q194 -46 211 -63T229 -113Q229 -155 198 -182T103 -209Q91 -209 78 -208T50 -204L67 -165Q72 -166 77 -166T88 -166Q109 -166 123 -162T145 -153T156 -140T159 -127Q159 -108 138
-99T82 -90L147 0H200L167 -43Z" />
<glyph unicode="&#xb9;" glyph-name="onesuperior" horiz-adv-x="377" d="M149 441H250L304 695L318 731L287 703L206 658L185 704L355 807H394L316 441H406L393 380H136L149 441Z" />
<glyph unicode="&#xba;" glyph-name="ordmasculine" horiz-adv-x="379" d="M60 490Q60 548 77 590T122 659T182 699T247 712Q304 712 333 681T363 593Q363 539 348 498T308 429T248 387T175 372Q124 372 92 403T60 490ZM129 498Q129 466 143 448T187 430Q208 430
227 441T262 472T285 522T294 589Q294 624 279 639T235 654Q214 654 195 642T161 608T138 559T129 498Z" />
<glyph unicode="&#xbb;" glyph-name="guillemotright" horiz-adv-x="454" d="M280 268L82 40L38 85L161 229L217 267L182 310L114 451L171 487L280 268ZM454 268L254 38L209 84L333 229L389 267L354 311L285 453L343 489L454 268Z" />
<glyph unicode="&#xbc;" glyph-name="onequarter" horiz-adv-x="797" d="M639 713L691 677L204 -12L152 24L639 713ZM744 96H666L645 0H581L602 96H409L416 133L694 435H737L678 155H757L744 96ZM641 283L658 332H656L625 286L529 181L491 150L540 155H614L641
283ZM256 595L271 631L240 603L159 558L135 607L308 707H347L256 280H190L256 595Z" />
<glyph unicode="&#xbd;" glyph-name="onehalf" horiz-adv-x="809" d="M639 713L691 677L204 -12L152 24L639 713ZM784 333Q784 301 770 269T731 204T674 141T608 82L558 51V48L615 64H746L732 0H457L464 33Q482 46 507 65T561 109T616 160T665 214T700 268T714
317Q714 363 659 363Q633 363 607 354T561 332L552 389Q580 407 615 417T684 427Q702 427 720 423T752 407T775 378T784 333ZM256 595L271 631L240 603L159 558L135 607L308 707H347L256 280H190L256 595Z" />
<glyph unicode="&#xbe;" glyph-name="threequarters" horiz-adv-x="833" d="M675 713L727 677L240 -12L188 24L675 713ZM780 96H702L681 0H617L638 96H445L452 133L730 435H773L714 155H793L780 96ZM677 283L694 332H692L661 286L565 181L527 150L576 155H650L677
283ZM209 333Q265 333 291 360T318 426Q318 453 302 466T238 480H186L190 503L306 620L344 646L296 640H175L188 700H431L424 667L300 543L274 525L273 523L295 526Q333 526 359 502T386 435Q386 403 376 374T344 322T287 286T199 273Q165 273 142 279T101 292L127
352Q141 344 162 339T209 333Z" />
<glyph unicode="&#xbf;" glyph-name="questiondown" horiz-adv-x="413" d="M306 323Q301 273 281 236T234 168T178 111T124 58T83 1T66 -68Q66 -107 86 -127T158 -148Q193 -148 227 -135T290 -104L310 -162Q290 -174 271 -183T231 -198T186 -208T130 -212Q56 -212
21 -178T-14 -90Q-14 -36 3 3T46 74T103 131T163 186T213 246T242 323H306ZM234 454Q234 481 250 496T292 512Q318 512 334 497T350 454Q350 428 334 412T292 396Q266 396 250 412T234 454Z" />
<glyph unicode="&#xc0;" glyph-name="Agrave" horiz-adv-x="557" d="M404 194H160L52 0H-33L371 711H408L509 0H432L404 194ZM199 266H396L367 479L365 585H364L319 477L199 266ZM456 752H393L264 849L268 870H369L456 752Z" />
<glyph unicode="&#xc1;" glyph-name="Aacute" horiz-adv-x="557" d="M404 194H160L52 0H-33L371 711H408L509 0H432L404 194ZM199 266H396L367 479L365 585H364L319 477L199 266ZM467 870H583L578 849L403 752H330L467 870Z" />
<glyph unicode="&#xc2;" glyph-name="Acircumflex" horiz-adv-x="557" d="M404 194H160L52 0H-33L371 711H408L509 0H432L404 194ZM199 266H396L367 479L365 585H364L319 477L199 266ZM392 870H440L539 768L535 747H467L421 796L411 831L386 797L315 747H240L245
769L392 870Z" />
<glyph unicode="&#xc3;" glyph-name="Atilde" horiz-adv-x="557" d="M404 194H160L52 0H-33L371 711H408L509 0H432L404 194ZM199 266H396L367 479L365 585H364L319 477L199 266ZM256 785Q291 817 318 828T369 840Q387 840 402 835T432 824T461 812T490 807Q515
807 543 828L559 785Q527 759 503 750T458 741Q440 741 425 746T396 757T367 769T338 774Q323 774 307 768T270 744L256 785Z" />
<glyph unicode="&#xc4;" glyph-name="Adieresis" horiz-adv-x="557" d="M404 194H160L52 0H-33L371 711H408L509 0H432L404 194ZM199 266H396L367 479L365 585H364L319 477L199 266ZM263 794Q263 814 277 827T314 841Q337 841 350 828T364 794Q364 774 351 761T314
748Q291 748 277 761T263 794ZM446 794Q446 814 459 827T496 841Q519 841 533 828T547 794Q547 774 533 761T496 748Q473 748 460 761T446 794Z" />
<glyph unicode="&#xc5;" glyph-name="Aring" horiz-adv-x="557" d="M296 768Q296 805 321 829T401 853Q451 853 479 832T507 768Q507 733 483 711T411 685L509 0H432L404 194H160L52 0H-33L359 690Q296 707 296 768ZM199 265H396L367 479L365 585H364L319 477L199
265ZM357 768Q357 751 367 740T401 728Q423 728 434 739T446 768Q446 787 435 798T401 810Q379 810 368 799T357 768Z" />
<glyph unicode="&#xc6;" glyph-name="AE" horiz-adv-x="805" d="M459 599L408 498L234 269H391L462 599H459ZM377 197H178L30 0H-62L479 700H845L830 626H547L498 397H757L741 323H483L429 74H717L702 0H415H335L377 197Z" />
<glyph unicode="&#xc7;" glyph-name="Ccedilla" horiz-adv-x="544" d="M480 29Q448 7 412 -2T328 -12L304 -43Q331 -46 348 -63T366 -113Q366 -155 335 -182T240 -209Q228 -209 215 -208T187 -204L204 -165Q209 -166 214 -166T225 -166Q246 -166 260 -162T282
-153T293 -140T296 -127Q296 -108 275 -99T219 -90L277 -9Q228 -2 190 22T126 84T85 169T71 274Q71 387 104 469T191 606T312 686T449 712Q506 712 542 704T601 685L565 612Q545 623 513 630T438 638Q382 638 331 614T240 543T178 431T155 283Q155 235 167 195T203
125T261 79T340 62Q387 62 418 72T474 97L480 29Z" />
<glyph unicode="&#xc8;" glyph-name="Egrave" horiz-adv-x="510" d="M189 700H550L535 626H252L203 397H462L447 323H188L135 74H423L407 0H119H40L189 700ZM422 752H359L230 849L234 870H335L422 752Z" />
<glyph unicode="&#xc9;" glyph-name="Eacute" horiz-adv-x="510" d="M189 700H550L535 626H252L203 397H462L447 323H188L135 74H423L407 0H119H40L189 700ZM451 870H567L562 849L387 752H314L451 870Z" />
<glyph unicode="&#xca;" glyph-name="Ecircumflex" horiz-adv-x="510" d="M189 700H550L535 626H252L203 397H462L447 323H188L135 74H423L407 0H119H40L189 700ZM381 870H429L528 768L524 747H456L410 796L400 831L375 797L304 747H229L234 769L381 870Z" />
<glyph unicode="&#xcb;" glyph-name="Edieresis" horiz-adv-x="510" d="M189 700H550L535 626H252L203 397H462L447 323H188L135 74H423L407 0H119H40L189 700ZM240 794Q240 814 254 827T291 841Q314 841 327 828T341 794Q341 774 328 761T291 748Q268 748 254
761T240 794ZM423 794Q423 814 436 827T473 841Q496 841 510 828T524 794Q524 774 510 761T473 748Q450 748 437 761T423 794Z" />
<glyph unicode="&#xcc;" glyph-name="Igrave" horiz-adv-x="277" d="M210 700H290L142 0H62L210 700ZM573 752H510L381 849L385 870H486L573 752Z" />
<glyph unicode="&#xcd;" glyph-name="Iacute" horiz-adv-x="277" d="M210 700H290L142 0H62L210 700ZM582 870H698L693 849L518 752H445L582 870Z" />
<glyph unicode="&#xce;" glyph-name="Icircumflex" horiz-adv-x="277" d="M210 700H290L142 0H62L210 700ZM519 870H567L666 768L662 747H594L548 796L538 831L513 797L442 747H367L372 769L519 870Z" />
<glyph unicode="&#xcf;" glyph-name="Idieresis" horiz-adv-x="277" d="M210 700H290L142 0H62L210 700ZM123 794Q123 814 137 827T174 841Q197 841 210 828T224 794Q224 774 211 761T174 748Q151 748 137 761T123 794ZM306 794Q306 814 319 827T356 841Q379 841
393 828T407 794Q407 774 393 761T356 748Q333 748 320 761T306 794Z" />
<glyph unicode="&#xd0;" glyph-name="Eth" horiz-adv-x="626" d="M41 392H127L193 700Q231 705 279 706T366 708Q424 708 472 693T553 645T605 564T623 449Q623 405 615 354T589 252T539 154T462 71T355 13T212 -9Q197 -9 173 -9T122 -7Q54 -3 44 -1L115 332H28L41
392ZM360 634Q348 634 333 634T304 633T277 631T257 629L207 392H344L332 332H194L139 69Q143 68 155 68T180 67T206 66T224 65Q311 65 370 101T467 192T522 313T539 438Q539 483 529 519T498 580T442 620T360 634Z" />
<glyph unicode="&#xd1;" glyph-name="Ntilde" horiz-adv-x="642" d="M261 458L227 561H224L212 458L115 0H40L191 711H231L449 243L482 145H486L495 243L593 700H668L517 -11H480L261 458ZM289 785Q324 817 351 828T402 840Q420 840 435 835T465 824T494 812T523
807Q548 807 576 828L592 785Q560 759 536 750T491 741Q473 741 458 746T429 757T400 769T371 774Q356 774 340 768T303 744L289 785Z" />
<glyph unicode="&#xd2;" glyph-name="Ograve" horiz-adv-x="651" d="M71 256Q71 348 96 431T167 576T279 675T425 712Q473 712 514 698T584 652T630 570T647 448Q647 354 622 271T552 124T445 25T307 -12Q189 -12 130 56T71 256ZM155 257Q155 163 194 112T309
60Q365 60 411 91T492 175T544 298T563 446Q563 504 550 542T516 601T467 631T411 640Q354 640 307 609T227 524T174 402T155 257ZM503 752H440L311 849L315 870H416L503 752Z" />
<glyph unicode="&#xd3;" glyph-name="Oacute" horiz-adv-x="651" d="M71 256Q71 348 96 431T167 576T279 675T425 712Q473 712 514 698T584 652T630 570T647 448Q647 354 622 271T552 124T445 25T307 -12Q189 -12 130 56T71 256ZM155 257Q155 163 194 112T309
60Q365 60 411 91T492 175T544 298T563 446Q563 504 550 542T516 601T467 631T411 640Q354 640 307 609T227 524T174 402T155 257ZM532 870H648L643 849L468 752H395L532 870Z" />
<glyph unicode="&#xd4;" glyph-name="Ocircumflex" horiz-adv-x="651" d="M71 256Q71 348 96 431T167 576T279 675T425 712Q473 712 514 698T584 652T630 570T647 448Q647 354 622 271T552 124T445 25T307 -12Q189 -12 130 56T71 256ZM155 257Q155 163 194 112T309
60Q365 60 411 91T492 175T544 298T563 446Q563 504 550 542T516 601T467 631T411 640Q354 640 307 609T227 524T174 402T155 257ZM447 870H495L594 768L590 747H522L476 796L466 831L441 797L370 747H295L300 769L447 870Z" />
<glyph unicode="&#xd5;" glyph-name="Otilde" horiz-adv-x="651" d="M71 256Q71 348 96 431T167 576T279 675T425 712Q473 712 514 698T584 652T630 570T647 448Q647 354 622 271T552 124T445 25T307 -12Q189 -12 130 56T71 256ZM155 257Q155 163 194 112T309
60Q365 60 411 91T492 175T544 298T563 446Q563 504 550 542T516 601T467 631T411 640Q354 640 307 609T227 524T174 402T155 257ZM298 785Q333 817 360 828T411 840Q429 840 444 835T474 824T503 812T532 807Q557 807 585 828L601 785Q569 759 545 750T500 741Q482
741 467 746T438 757T409 769T380 774Q365 774 349 768T312 744L298 785Z" />
<glyph unicode="&#xd6;" glyph-name="Odieresis" horiz-adv-x="651" d="M71 256Q71 348 96 431T167 576T279 675T425 712Q473 712 514 698T584 652T630 570T647 448Q647 354 622 271T552 124T445 25T307 -12Q189 -12 130 56T71 256ZM155 257Q155 163 194 112T309
60Q365 60 411 91T492 175T544 298T563 446Q563 504 550 542T516 601T467 631T411 640Q354 640 307 609T227 524T174 402T155 257ZM307 794Q307 814 321 827T358 841Q381 841 394 828T408 794Q408 774 395 761T358 748Q335 748 321 761T307 794ZM490 794Q490 814
503 827T540 841Q563 841 577 828T591 794Q591 774 577 761T540 748Q517 748 504 761T490 794Z" />
<glyph unicode="&#xd7;" glyph-name="multiply" horiz-adv-x="480" d="M138 517L265 390L392 517L443 464L317 339L443 212L392 160L265 287L139 159L87 210L214 339L87 464L138 517Z" />
<glyph unicode="&#xd8;" glyph-name="Oslash" horiz-adv-x="651" d="M71 256Q71 348 96 431T167 576T279 675T425 712Q464 712 498 703T560 673L589 712L638 674L603 627Q624 596 635 552T647 448Q647 354 622 271T552 124T445 25T307 -12Q219 -12 162 28L133
-11L83 28L117 74Q71 139 71 256ZM155 257Q155 194 173 149L510 605Q489 624 464 632T411 640Q354 640 307 609T227 524T174 402T155 257ZM563 446Q563 478 559 504T547 550L210 94Q249 60 309 60Q365 60 411 91T492 175T544 298T563 446Z" />
<glyph unicode="&#xd9;" glyph-name="Ugrave" horiz-adv-x="618" d="M573 700H649L551 233Q537 169 516 123T464 48T388 5T286 -9Q231 -9 193 3T132 38T98 93T87 165Q87 206 98 258L191 700H271L178 257Q167 213 167 177Q167 114 200 90T298 65Q337 65 366 76T417
110T453 169T479 256L573 700ZM499 752H436L307 849L311 870H412L499 752Z" />
<glyph unicode="&#xda;" glyph-name="Uacute" horiz-adv-x="618" d="M573 700H649L551 233Q537 169 516 123T464 48T388 5T286 -9Q231 -9 193 3T132 38T98 93T87 165Q87 206 98 258L191 700H271L178 257Q167 213 167 177Q167 114 200 90T298 65Q337 65 366 76T417
110T453 169T479 256L573 700ZM508 870H624L619 849L444 752H371L508 870Z" />
<glyph unicode="&#xdb;" glyph-name="Ucircumflex" horiz-adv-x="618" d="M573 700H649L551 233Q537 169 516 123T464 48T388 5T286 -9Q231 -9 193 3T132 38T98 93T87 165Q87 206 98 258L191 700H271L178 257Q167 213 167 177Q167 114 200 90T298 65Q337 65 366
76T417 110T453 169T479 256L573 700ZM434 870H482L581 768L577 747H509L463 796L453 831L428 797L357 747H282L287 769L434 870Z" />
<glyph unicode="&#xdc;" glyph-name="Udieresis" horiz-adv-x="618" d="M573 700H649L551 233Q537 169 516 123T464 48T388 5T286 -9Q231 -9 193 3T132 38T98 93T87 165Q87 206 98 258L191 700H271L178 257Q167 213 167 177Q167 114 200 90T298 65Q337 65 366
76T417 110T453 169T479 256L573 700ZM296 794Q296 814 310 827T347 841Q370 841 383 828T397 794Q397 774 384 761T347 748Q324 748 310 761T296 794ZM479 794Q479 814 492 827T529 841Q552 841 566 828T580 794Q580 774 566 761T529 748Q506 748 493 761T479
794Z" />
<glyph unicode="&#xdd;" glyph-name="Yacute" horiz-adv-x="531" d="M241 278L108 700H195L284 394L287 333H288L318 396L535 700H625L321 279L262 0H182L241 278ZM474 870H590L585 849L410 752H337L474 870Z" />
<glyph unicode="&#xde;" glyph-name="Thorn" horiz-adv-x="532" d="M189 700H268L252 625Q292 628 333 628Q379 628 418 618T486 586T532 530T549 447Q549 371 522 320T450 238T349 194T236 181Q231 181 221 181T198 181T175 183T159 185L120 0H40L189 700ZM316
555Q293 555 272 554T236 549L175 259Q179 257 188 257T208 255T229 254T244 254Q287 254 327 263T398 293T447 350T465 439Q465 475 453 497T421 532T373 550T316 555Z" />
<glyph unicode="&#xdf;" glyph-name="germandbls" horiz-adv-x="559" d="M174 528Q194 623 248 664T386 706Q428 706 457 696T504 670T530 632T539 588Q539 553 527 529T496 487T455 456T415 429T384 400T371 364Q371 345 382 334T411 313T449 295T487 270T516
233T528 174Q528 135 511 101T464 42T395 3T311 -12Q276 -12 246 -6T192 16L228 83Q268 58 319 58Q340 58 363 65T404 87T435 121T448 169Q448 192 437 207T408 233T370 253T332 276T303 310T291 361Q291 391 303 412T335 450T376 481T417 509T447 539T459 576Q459
606 437 621T375 636Q266 637 243 498L147 0Q138 -55 126 -94T96 -158T52 -196T-11 -208Q-41 -208 -66 -204T-114 -188L-92 -132Q-72 -139 -56 -141T-15 -143Q23 -143 42 -104T72 0L154 436H68L81 500H167L174 528V528Z" />
<glyph unicode="&#xe0;" glyph-name="agrave" horiz-adv-x="487" d="M414 197Q406 160 403 122T400 51Q400 36 400 23T402 -2H346L332 85H328Q316 68 299 51T260 19T215 -3T164 -12Q45 -12 45 143Q45 207 61 273T112 392T201 479T333 513Q361 513 401 507T477
489L414 197ZM187 52Q211 52 233 63T274 92T309 128T333 165L389 435Q359 449 313 449Q267 449 232 422T173 352T137 253T125 143Q125 105 140 79T187 52ZM359 571H316L235 699L239 720H330L359 571Z" />
<glyph unicode="&#xe1;" glyph-name="aacute" horiz-adv-x="487" d="M414 197Q406 160 403 122T400 51Q400 36 400 23T402 -2H346L332 85H328Q316 68 299 51T260 19T215 -3T164 -12Q45 -12 45 143Q45 207 61 273T112 392T201 479T333 513Q361 513 401 507T477
489L414 197ZM187 52Q211 52 233 63T274 92T309 128T333 165L389 435Q359 449 313 449Q267 449 232 422T173 352T137 253T125 143Q125 105 140 79T187 52ZM392 720H476L471 699L348 571H304L392 720Z" />
<glyph unicode="&#xe2;" glyph-name="acircumflex" horiz-adv-x="487" d="M414 197Q406 160 403 122T400 51Q400 36 400 23T402 -2H346L332 85H328Q316 68 299 51T260 19T215 -3T164 -12Q45 -12 45 143Q45 207 61 273T112 392T201 479T333 513Q361 513 401 507T477
489L414 197ZM187 52Q211 52 233 63T274 92T309 128T333 165L389 435Q359 449 313 449Q267 449 232 422T173 352T137 253T125 143Q125 105 140 79T187 52ZM358 732H388L454 550H391L367 616L361 674L327 616L270 550H202L358 732Z" />
<glyph unicode="&#xe3;" glyph-name="atilde" horiz-adv-x="487" d="M414 197Q406 160 403 122T400 51Q400 36 400 23T402 -2H346L332 85H328Q316 68 299 51T260 19T215 -3T164 -12Q45 -12 45 143Q45 207 61 273T112 392T201 479T333 513Q361 513 401 507T477
489L414 197ZM187 52Q211 52 233 63T274 92T309 128T333 165L389 435Q359 449 313 449Q267 449 232 422T173 352T137 253T125 143Q125 105 140 79T187 52ZM217 656Q249 689 272 701T314 714Q329 714 341 708T364 694T387 680T413 674Q436 674 467 698L482 655Q453
626 432 615T394 604Q379 604 367 610T344 623T320 637T293 643Q280 643 265 637T230 614L217 656Z" />
<glyph unicode="&#xe4;" glyph-name="adieresis" horiz-adv-x="487" d="M414 197Q406 160 403 122T400 51Q400 36 400 23T402 -2H346L332 85H328Q316 68 299 51T260 19T215 -3T164 -12Q45 -12 45 143Q45 207 61 273T112 392T201 479T333 513Q361 513 401 507T477
489L414 197ZM187 52Q211 52 233 63T274 92T309 128T333 165L389 435Q359 449 313 449Q267 449 232 422T173 352T137 253T125 143Q125 105 140 79T187 52ZM185 653Q185 675 197 689T231 704Q252 704 265 690T278 653Q278 633 265 619T231 604Q210 604 198 618T185
653ZM368 654Q368 675 380 689T414 704Q436 704 448 690T461 654Q461 633 449 619T414 604Q393 604 381 618T368 654Z" />
<glyph unicode="&#xe5;" glyph-name="aring" horiz-adv-x="487" d="M414 197Q406 160 403 122T400 51Q400 36 400 23T402 -2H346L332 85H328Q316 68 299 51T260 19T215 -3T164 -12Q45 -12 45 143Q45 207 61 273T112 392T201 479T333 513Q361 513 401 507T477 489L414
197ZM187 52Q211 52 233 63T274 92T309 128T333 165L389 435Q359 449 313 449Q267 449 232 422T173 352T137 253T125 143Q125 105 140 79T187 52ZM251 643Q251 685 277 709T348 734Q390 734 418 712T446 643Q446 604 418 579T348 553Q306 553 279 576T251 643ZM305
643Q305 623 318 612T348 601Q367 601 379 611T392 643Q392 665 379 675T348 686Q331 686 318 676T305 643Z" />
<glyph unicode="&#xe6;" glyph-name="ae" horiz-adv-x="754" d="M176 56Q203 56 227 69T272 99T306 134T328 163L336 231Q325 232 313 232T290 233Q252 233 219 227T161 208T122 176T108 128Q108 90 125 73T176 56ZM332 87Q300 48 253 20T148 -8Q117 -8 95 2T57
28T35 66T28 111Q28 162 50 196T109 251T197 281T302 290Q313 290 324 290T347 289Q367 354 367 386Q367 418 348 431T285 444Q269 444 250 442T210 434T172 423T138 409L126 469Q168 492 217 500T318 508Q366 508 396 491T434 442Q466 479 511 495T599 512Q673
512 709 480T745 399Q745 346 721 314T652 264T546 240T410 232Q407 215 405 200T403 171Q403 116 431 84T526 52Q558 52 592 64T648 92L665 38Q631 14 585 1T490 -12Q432 -12 393 14T339 87H332ZM587 448Q526 448 485 408T422 293Q471 293 515 295T594 307T648
336T668 388Q668 413 652 430T587 448Z" />
<glyph unicode="&#xe7;" glyph-name="ccedilla" horiz-adv-x="420" d="M365 43Q339 21 304 7T236 -12L211 -43Q238 -46 255 -63T273 -113Q273 -155 242 -182T147 -209Q135 -209 122 -208T94 -204L111 -165Q116 -166 121 -166T132 -166Q153 -166 167 -162T189 -153T200
-140T203 -127Q203 -108 182 -99T126 -90L183 -12Q143 -8 117 9T76 49T56 99T50 148Q50 233 73 300T134 415T223 487T326 512Q364 512 388 505T433 489L405 427Q388 437 363 442T309 448Q275 448 243 425T185 365T145 279T130 179Q130 114 157 83T230 52Q260 52
293 65T346 93L365 43Z" />
<glyph unicode="&#xe8;" glyph-name="egrave" horiz-adv-x="463" d="M389 49Q354 19 307 4T211 -12Q131 -12 91 34T50 162Q50 244 73 309T133 419T218 488T316 512Q352 512 378 502T422 476T447 438T455 392Q455 321 386 281T185 240Q173 240 160 240T133 242Q129
223 127 206T125 176Q125 121 150 87T228 52Q272 52 308 66T365 97L389 49ZM304 448Q249 448 209 411T147 298Q185 298 226 300T300 310T356 337T378 389Q378 399 375 409T363 428T341 442T304 448ZM343 571H300L219 699L223 720H314L343 571Z" />
<glyph unicode="&#xe9;" glyph-name="eacute" horiz-adv-x="463" d="M389 49Q354 19 307 4T211 -12Q131 -12 91 34T50 162Q50 244 73 309T133 419T218 488T316 512Q352 512 378 502T422 476T447 438T455 392Q455 321 386 281T185 240Q173 240 160 240T133 242Q129
223 127 206T125 176Q125 121 150 87T228 52Q272 52 308 66T365 97L389 49ZM304 448Q249 448 209 411T147 298Q185 298 226 300T300 310T356 337T378 389Q378 399 375 409T363 428T341 442T304 448ZM374 720H458L453 699L330 571H286L374 720Z" />
<glyph unicode="&#xea;" glyph-name="ecircumflex" horiz-adv-x="463" d="M389 49Q354 19 307 4T211 -12Q131 -12 91 34T50 162Q50 244 73 309T133 419T218 488T316 512Q352 512 378 502T422 476T447 438T455 392Q455 321 386 281T185 240Q173 240 160 240T133
242Q129 223 127 206T125 176Q125 121 150 87T228 52Q272 52 308 66T365 97L389 49ZM304 448Q249 448 209 411T147 298Q185 298 226 300T300 310T356 337T378 389Q378 399 375 409T363 428T341 442T304 448ZM599 732H629L695 550H632L608 616L602 674L568 616L511
550H443L599 732Z" />
<glyph unicode="&#xeb;" glyph-name="edieresis" horiz-adv-x="463" d="M389 49Q354 19 307 4T211 -12Q131 -12 91 34T50 162Q50 244 73 309T133 419T218 488T316 512Q352 512 378 502T422 476T447 438T455 392Q455 321 386 281T185 240Q173 240 160 240T133 242Q129
223 127 206T125 176Q125 121 150 87T228 52Q272 52 308 66T365 97L389 49ZM304 448Q249 448 209 411T147 298Q185 298 226 300T300 310T356 337T378 389Q378 399 375 409T363 428T341 442T304 448ZM195 653Q195 675 207 689T241 704Q262 704 275 690T288 653Q288
633 275 619T241 604Q220 604 208 618T195 653ZM378 654Q378 675 390 689T424 704Q446 704 458 690T471 654Q471 633 459 619T424 604Q403 604 391 618T378 654Z" />
<glyph unicode="&#xec;" glyph-name="igrave" horiz-adv-x="259" d="M160 500H235L129 0H54L160 500ZM504 571H461L380 699L384 720H475L504 571Z" />
<glyph unicode="&#xed;" glyph-name="iacute" horiz-adv-x="259" d="M160 500H235L129 0H54L160 500ZM264 720H348L343 699L220 571H176L264 720Z" />
<glyph unicode="&#xee;" glyph-name="icircumflex" horiz-adv-x="259" d="M160 500H235L129 0H54L160 500ZM490 732H520L586 550H523L499 616L493 674L459 616L402 550H334L490 732Z" />
<glyph unicode="&#xef;" glyph-name="idieresis" horiz-adv-x="259" d="M160 500H235L129 0H54L160 500ZM89 653Q89 675 101 689T135 704Q156 704 169 690T182 653Q182 633 169 619T135 604Q114 604 102 618T89 653ZM272 654Q272 675 284 689T318 704Q340 704
352 690T365 654Q365 633 353 619T318 604Q297 604 285 618T272 654Z" />
<glyph unicode="&#xf0;" glyph-name="eth" horiz-adv-x="496" d="M276 595L354 629Q338 649 320 662T281 685L340 712Q386 693 416 656L492 689L512 648L441 617Q457 585 466 545T475 456Q475 330 452 242T390 97T304 14T207 -12Q168 -12 139 1T90 36T61 90T51
156Q51 225 69 288T122 401T202 480T304 510Q347 510 368 499T404 470Q405 540 379 590L298 555L276 595ZM130 164Q130 110 153 81T211 52Q264 52 299 87T356 174T386 282T395 382Q387 411 362 428T301 445Q263 445 232 419T178 352T143 262T130 164Z" />
<glyph unicode="&#xf1;" glyph-name="ntilde" horiz-adv-x="522" d="M577 0L644 316Q648 334 651 351T654 383Q654 412 641 430T590 448Q564 448 539 436T492 406T453 365T423 320L357 0H282L388 500H440L436 414H440Q453 430 471 447T511 479T562 502T624 512Q674
512 703 488T732 404Q732 374 723 332L652 0H577ZM220 656Q252 689 275 701T317 714Q332 714 344 708T367 694T390 680T416 674Q439 674 470 698L485 655Q456 626 435 615T397 604Q382 604 370 610T347 623T323 637T296 643Q283 643 268 637T233 614L220 656Z"
/>
<glyph unicode="&#xf2;" glyph-name="ograve" horiz-adv-x="498" d="M50 156Q50 235 70 300T127 413T210 486T312 512Q354 512 383 499T431 462T458 408T466 344Q466 269 447 204T393 91T312 16T212 -12Q167 -12 137 2T87 41T59 95T50 156ZM130 174Q130 115 152
84T222 52Q255 52 284 75T336 139T372 230T386 338Q386 389 368 418T297 448Q264 448 234 426T181 365T144 278T130 174ZM355 571H312L231 699L235 720H326L355 571Z" />
<glyph unicode="&#xf3;" glyph-name="oacute" horiz-adv-x="498" d="M50 156Q50 235 70 300T127 413T210 486T312 512Q354 512 383 499T431 462T458 408T466 344Q466 269 447 204T393 91T312 16T212 -12Q167 -12 137 2T87 41T59 95T50 156ZM130 174Q130 115 152
84T222 52Q255 52 284 75T336 139T372 230T386 338Q386 389 368 418T297 448Q264 448 234 426T181 365T144 278T130 174ZM376 720H460L455 699L332 571H288L376 720Z" />
<glyph unicode="&#xf4;" glyph-name="ocircumflex" horiz-adv-x="498" d="M50 156Q50 235 70 300T127 413T210 486T312 512Q354 512 383 499T431 462T458 408T466 344Q466 269 447 204T393 91T312 16T212 -12Q167 -12 137 2T87 41T59 95T50 156ZM130 174Q130 115
152 84T222 52Q255 52 284 75T336 139T372 230T386 338Q386 389 368 418T297 448Q264 448 234 426T181 365T144 278T130 174ZM599 732H629L695 550H632L608 616L602 674L568 616L511 550H443L599 732Z" />
<glyph unicode="&#xf5;" glyph-name="otilde" horiz-adv-x="498" d="M50 156Q50 235 70 300T127 413T210 486T312 512Q354 512 383 499T431 462T458 408T466 344Q466 269 447 204T393 91T312 16T212 -12Q167 -12 137 2T87 41T59 95T50 156ZM130 174Q130 115 152
84T222 52Q255 52 284 75T336 139T372 230T386 338Q386 389 368 418T297 448Q264 448 234 426T181 365T144 278T130 174ZM195 656Q227 689 250 701T292 714Q307 714 319 708T342 694T365 680T391 674Q414 674 445 698L460 655Q431 626 410 615T372 604Q357 604
345 610T322 623T298 637T271 643Q258 643 243 637T208 614L195 656Z" />
<glyph unicode="&#xf6;" glyph-name="odieresis" horiz-adv-x="498" d="M50 156Q50 235 70 300T127 413T210 486T312 512Q354 512 383 499T431 462T458 408T466 344Q466 269 447 204T393 91T312 16T212 -12Q167 -12 137 2T87 41T59 95T50 156ZM130 174Q130 115
152 84T222 52Q255 52 284 75T336 139T372 230T386 338Q386 389 368 418T297 448Q264 448 234 426T181 365T144 278T130 174ZM189 653Q189 675 201 689T235 704Q256 704 269 690T282 653Q282 633 269 619T235 604Q214 604 202 618T189 653ZM372 654Q372 675 384
689T418 704Q440 704 452 690T465 654Q465 633 453 619T418 604Q397 604 385 618T372 654Z" />
<glyph unicode="&#xf7;" glyph-name="divide" horiz-adv-x="480" d="M55 374H479V302H55V374ZM210 525Q210 552 226 567T268 583Q294 583 310 568T326 525Q326 499 310 483T268 467Q242 467 226 483T210 525ZM210 151Q210 178 226 193T268 209Q294 209 310 194T326
151Q326 125 310 109T268 93Q242 93 226 109T210 151Z" />
<glyph unicode="&#xf8;" glyph-name="oslash" horiz-adv-x="498" d="M50 156Q50 235 70 300T127 413T210 486T312 512Q347 512 373 503T418 476L454 515L494 478L450 428Q458 409 462 388T466 344Q466 269 447 204T393 91T312 16T212 -12Q172 -12 144 -1T95 31L55
-14L13 24L63 80Q50 115 50 156ZM386 338Q386 343 386 348T385 358L146 92Q169 52 222 52Q255 52 284 75T336 139T372 230T386 338ZM130 174Q130 168 130 162T131 150L369 416Q348 448 297 448Q264 448 234 426T181 365T144 278T130 174Z" />
<glyph unicode="&#xf9;" glyph-name="ugrave" horiz-adv-x="511" d="M213 500L143 167Q137 140 137 117Q137 89 148 71T188 52Q212 52 236 64T283 95T324 137T355 182L422 500H497L434 203Q430 186 426 162T419 110T413 58T411 13V0H352V95H348Q333 75 314 56T271
22T220 -2T163 -12Q141 -12 123 -7T90 10T68 43T60 96Q60 131 70 175L138 500H213ZM366 571H323L242 699L246 720H337L366 571Z" />
<glyph unicode="&#xfa;" glyph-name="uacute" horiz-adv-x="511" d="M213 500L143 167Q137 140 137 117Q137 89 148 71T188 52Q212 52 236 64T283 95T324 137T355 182L422 500H497L434 203Q430 186 426 162T419 110T413 58T411 13V0H352V95H348Q333 75 314 56T271
22T220 -2T163 -12Q141 -12 123 -7T90 10T68 43T60 96Q60 131 70 175L138 500H213ZM377 720H461L456 699L333 571H289L377 720Z" />
<glyph unicode="&#xfb;" glyph-name="ucircumflex" horiz-adv-x="511" d="M213 500L143 167Q137 140 137 117Q137 89 148 71T188 52Q212 52 236 64T283 95T324 137T355 182L422 500H497L434 203Q430 186 426 162T419 110T413 58T411 13V0H352V95H348Q333 75 314
56T271 22T220 -2T163 -12Q141 -12 123 -7T90 10T68 43T60 96Q60 131 70 175L138 500H213ZM356 732H386L452 550H389L365 616L359 674L325 616L268 550H200L356 732Z" />
<glyph unicode="&#xfc;" glyph-name="udieresis" horiz-adv-x="511" d="M213 500L143 167Q137 140 137 117Q137 89 148 71T188 52Q212 52 236 64T283 95T324 137T355 182L422 500H497L434 203Q430 186 426 162T419 110T413 58T411 13V0H352V95H348Q333 75 314
56T271 22T220 -2T163 -12Q141 -12 123 -7T90 10T68 43T60 96Q60 131 70 175L138 500H213ZM210 653Q210 675 222 689T256 704Q277 704 290 690T303 653Q303 633 290 619T256 604Q235 604 223 618T210 653ZM393 654Q393 675 405 689T439 704Q461 704 473 690T486
654Q486 633 474 619T439 604Q418 604 406 618T393 654Z" />
<glyph unicode="&#xfd;" glyph-name="yacute" horiz-adv-x="439" d="M194 176L199 80H204L242 177L408 500H488L252 54Q226 5 201 -41T148 -124T92 -183T32 -205Q15 -205 3 -203T-20 -196L4 -127Q15 -131 28 -131Q57 -131 86 -101T151 0L65 500H145L194 176ZM337
720H421L416 699L293 571H249L337 720Z" />
<glyph unicode="&#xfe;" glyph-name="thorn" horiz-adv-x="508" d="M188 700H263L201 426H205Q219 443 235 458T270 486T312 505T365 512Q389 512 410 505T447 480T472 433T482 362Q482 274 458 205T395 87T308 14T211 -12Q176 -12 150 -6T114 8L70 -200H-5L188
700ZM337 448Q310 448 286 434T241 400T204 356T178 312L129 75Q146 62 164 57T203 52Q242 52 277 73T341 135T385 231T402 356Q402 396 386 422T337 448Z" />
<glyph unicode="&#xff;" glyph-name="ydieresis" horiz-adv-x="439" d="M194 176L199 80H204L242 177L408 500H488L252 54Q226 5 201 -41T148 -124T92 -183T32 -205Q15 -205 3 -203T-20 -196L4 -127Q15 -131 28 -131Q57 -131 86 -101T151 0L65 500H145L194 176ZM150
653Q150 675 162 689T196 704Q217 704 230 690T243 653Q243 633 230 619T196 604Q175 604 163 618T150 653ZM333 654Q333 675 345 689T379 704Q401 704 413 690T426 654Q426 633 414 619T379 604Q358 604 346 618T333 654Z" />
<glyph unicode="&#x2013;" glyph-name="endash" horiz-adv-x="627" d="M129 322H532L516 254H113L129 322Z" />
<glyph unicode="&#x2014;" glyph-name="emdash" horiz-adv-x="779" d="M129 322H684L668 254H113L129 322Z" />
<glyph unicode="&#x2018;" glyph-name="quoteleft" horiz-adv-x="186" d="M215 628Q215 599 201 585T161 570Q135 570 122 588T108 629Q108 663 121 689T152 734T189 763T220 778L235 743Q212 732 195 713T174 667Q177 668 183 668Q198 668 206 656T215 628Z" />
<glyph unicode="&#x2019;" glyph-name="quoteright" horiz-adv-x="186" d="M130 658Q130 670 135 679T149 695T166 704T185 708Q215 708 225 693T236 650Q236 616 223 590T192 546T155 516T124 500L108 534Q131 546 148 565T170 611Q130 613 130 658Z" />
<glyph unicode="&#x201a;" glyph-name="quotesinglbase" horiz-adv-x="189" d="M24 49Q24 61 29 70T43 86T60 95T79 99Q109 99 119 84T130 41Q130 7 117 -19T86 -63T49 -93T18 -109L2 -75Q25 -63 42 -44T64 2Q24 4 24 49Z" />
<glyph unicode="&#x201c;" glyph-name="quotedblleft" horiz-adv-x="325" d="M354 628Q354 599 340 585T300 570Q274 570 261 588T247 629Q247 663 260 689T291 734T328 763T359 778L374 743Q351 732 334 713T313 667Q316 668 322 668Q337 668 345 656T354 628ZM215
628Q215 599 201 585T161 570Q135 570 122 588T108 629Q108 663 121 689T152 734T189 763T220 778L235 743Q212 732 195 713T174 667Q177 668 183 668Q198 668 206 656T215 628Z" />
<glyph unicode="&#x201d;" glyph-name="quotedblright" horiz-adv-x="325" d="M268 658Q268 670 273 679T287 695T304 704T323 708Q353 708 363 693T374 650Q374 616 361 590T330 546T293 516T262 500L246 534Q269 546 286 565T308 611Q268 613 268 658ZM130 658Q130
670 135 679T149 695T166 704T185 708Q215 708 225 693T236 650Q236 616 223 590T192 546T155 516T124 500L108 534Q131 546 148 565T170 611Q130 613 130 658Z" />
<glyph unicode="&#x201e;" glyph-name="quotedblbase" horiz-adv-x="327" d="M161 49Q161 61 166 70T180 86T197 95T216 99Q246 99 256 84T267 41Q267 7 254 -19T223 -63T186 -93T155 -109L139 -75Q162 -63 179 -44T201 2Q161 4 161 49ZM24 49Q24 61 29 70T43
86T60 95T79 99Q109 99 119 84T130 41Q130 7 117 -19T86 -63T49 -93T18 -109L2 -75Q25 -63 42 -44T64 2Q24 4 24 49Z" />
<glyph unicode="&#x2022;" glyph-name="bullet" horiz-adv-x="452" d="M112 311Q112 342 123 367T152 411T196 440T251 450Q280 450 305 441T349 413T379 370T390 311Q390 278 379 253T350 209T306 182T251 172Q222 172 197 181T153 209T123 252T112 311Z" />
<glyph unicode="&#x2039;" glyph-name="guilsinglleft" horiz-adv-x="282" d="M38 259L238 489L282 441L159 297L103 260L136 221L204 80L149 38L38 259Z" />
<glyph unicode="&#x203a;" glyph-name="guilsinglright" horiz-adv-x="282" d="M282 268L82 38L37 81L161 226L218 267L183 309L115 451L172 489L282 268Z" />
</font>
</defs>
</svg>
